To je to


 
Početna stranicaPortailFAQPretražnikČlanstvoRegistracijaLogin

Share | 
 

 Maradona.by.Kusturica.2008

Go down 
Autor/icaPoruka
hubabuba
Gost



PostajNaslov: Maradona.by.Kusturica.2008   5/10/2008, 14:06

Maradona.by.Kusturica.2008.R5.AC3.XviD-3ur0d4nc3r



iMDB:
User Rating: 5.6/10 (158 votes)
Theatre: November 21, 2008
Release: October 4, 2008
Source: Maradona.by.Kusturica.2008.R5.DVDR-TDM
Language: English
Genre: Documentary
Audio: English 5.1
Subtitles: n/a
Extras: n/a


Plot:

A documentary on Argentinean soccer star Diego Maradona,
regarded by many as the world's greatest modern player.


Cast

Emir Kusturica ... Himself
Diego Armando Maradona ... Himself

Format : AVI
Format/Info : Audio Video Interleave
File size : 1.36 GiB
Duration : 1h 32mn
Overal bit rate : 2101 Kbps
Writing application : VirtualDubMod 1.5.10.2 (build 2540/release)
Writing library : VirtualDubMod build 2540/release

Video
Format : MPEG-4 Visual
Format profile : Streaming Video@L1
Format settings, BVOP : Yes
Format settings, QPel : No
Format settings, GMC : 0 warppoint
Format settings, Matrix : Default
Muxing mode : Packet Bitstream
Codec ID : XVID
Codec ID/Hint : XviD
Duration : 1h 32mn
Bit rate : 1644 Kbps
Width : 672 pixels
Height : 384 pixels
Display aspect ratio : 16/9
Frame rate : 25.000 fps
Resolution : 8 bits
Colorimetry : 4:2:0
Scan type : Progressive
Bits/(Pixel*Frame) : 0.255
Stream size : 1.06 GiB
Writing library : XviD 1.0.3
Writing library/Date : UTC 2004-12-20

Audio
Format : AC-3
Format/Info : Audio Coding 3
Codec ID : 2000
Duration : 1h 32mn
Bit rate mode : CBR
Bit rate : 448 Kbps
Channel(s) : 6 channels
Channel positions : Front: L C R, Rear: L R, LFE
Sampling rate : 48.0 KHz
Stream size : 297 MiB



Kod:
http://rapidshare.com/files/151229646/MbK.part1.rar
http://rapidshare.com/files/151231540/MbK.part2.rar
http://rapidshare.com/files/151231693/MbK.part3.rar
http://rapidshare.com/files/151229702/MbK.part4.rar
http://rapidshare.com/files/151232065/MbK.part5.rar
http://rapidshare.com/files/151233710/MbK.part6.rar
http://rapidshare.com/files/151233679/MbK.part7.rar
http://rapidshare.com/files/151232872/MbK.part8.rar
[Vrh] Go down
Lukica
Admin
Admin
avatar

Broj postova : 983
Age : 27
Location : ***LOST***
Registration date : 30.07.2007

PostajNaslov: Re: Maradona.by.Kusturica.2008   6/10/2008, 14:44

Hvala ti na ovome...malo je onih koji nisu registrirani, a stavljaju linkove!!
[Vrh] Go down
Korisnički profil http://tojeto.highforum.net
Axilleus
Gost



PostajNaslov: Re: Maradona.by.Kusturica.2008   10/10/2008, 08:28

hvala za linkove
[Vrh] Go down
Axilleus
Gost



PostajNaslov: prevod?   12/10/2008, 11:43

majstore jel imas prevod za ovaj film? ne razumem spanski Smile
[Vrh] Go down
ČOKOLADNI
Admin
Admin
avatar

Broj postova : 790
Location : Najlon city G.P
Registration date : 01.08.2007

PostajNaslov: Re: Maradona.by.Kusturica.2008   12/10/2008, 13:09

probaj na www.titlovi.net

skines prijevod i ubacis u bs player....ako ga ima,naravno
[Vrh] Go down
Korisnički profil
Axilleus
Gost



PostajNaslov: Re: Maradona.by.Kusturica.2008   17/10/2008, 07:36

nazalost nema prevoda na titlovi.net
ako neko nadje prevod, ostavite link
hvala
[Vrh] Go down
Lukica
Admin
Admin
avatar

Broj postova : 983
Age : 27
Location : ***LOST***
Registration date : 30.07.2007

PostajNaslov: Re: Maradona.by.Kusturica.2008   17/10/2008, 15:54

par stranica pa pretrazi Laughing
Kod:

http://www.divx-titlovi.com

http://www.podnapisi.net/

http://www.moviesubtitles.net/

http://www.opensubtitles.org/en

http://www.rdwsubs.com/

http://www.divxplanet.com/

http://www.divxforever.net/

http://divxstation.com/subtitles.asp

http://www.divxsubtitles.net/

http://www.hot.ee/subland/index.html

http://www.sub-search.com/
[Vrh] Go down
Korisnički profil http://tojeto.highforum.net
Sponsored content




PostajNaslov: Re: Maradona.by.Kusturica.2008   

[Vrh] Go down
 
Maradona.by.Kusturica.2008
[Vrh] 
Stranica 1 / 1.

Permissions in this forum:Ne možeš odgovarati na postove.
To je to :: DOWNLOAD ZONA :: Filmovi :: Ex-Yu filmovi-
Forum(o)Bir: